Printable Version of Topic

Click here to view this topic in its original format

Metal Area - Extreme Music Portal _ New Releases _ Vhod - Tempest Of Reckoning [ep] (2022)

Posted by: kefka Aug 5 2022, 05:18:03

https://metalarea.org/images/audiocovers/2022_Aug/acov_tid367963.jpg

*Artist: Vhod
*Album: Tempest Of Reckoning [ep]
*Year: 2022
*Genre: Death Metal
*Country: Canada
*Format: mp3@CBR320kbps
*Size: 68MB

Tracklist:
1.Periphery of Revenants 04:54
2.Uranium Saviour 05:00
3.The Screaming Stars 05:04
4.Doomclasp 05:48
5.Beyond the Sodden Sleep 05:26
6.Tempest of Reckoning 03:31
******************************
Total playing time: 29:43

https://vhod.bandcamp.com/album/tempest-of-reckoning

Technical info

Input File: 06 - Tempest of Reckoning.mp3
Channels : 2
Sample Rate : 44100
Precision : 16-bit
Duration : 00:03:31.53 = 9328253 samples = 15864.4 CDDA sectors
File Size : 8.51M
Bit Rate : 322k
Sample Encoding: MPEG audio (layer I, II or III)
Comments :
Title=Tempest of Reckoning
Artist=VHOD
Album=Tempest of Reckoning
Tracknumber=06
Year=2022
Genre=OSDM



[ Hidden Text ]

Posted by: oathzine Aug 6 2022, 09:58:24

Flac

[ Hidden Text ]

Powered by Invision Power Board
© Invision Power Services