Printable Version of Topic

Click here to view this topic in its original format

Metal Area - Extreme Music Portal _ New Releases _ City Indian - W.P.C.I Warning [ep] (1985)

Posted by: slack Aug 5 2022, 22:36:55

https://metalarea.org/images/audiocovers/2022_Aug/acov_tid367995.jpg

*Artist: City Indian
*Album: W.P.C.I Warning [ep]
*Year: 1985
*Genre: Hardcore/Heavy/Speed Metal
*Country: Japan
*Format: mp3@CBR320kbps
*Size: 27MB

Tracklist:
01. Viviant Rock 03:34
02. W.P.C.I Warning 03:06
03. Let's Hot 02:04
04. One Way Eager 02:39
******************************
Total playing time: 11:23

https://www.metal-archives.com/albums/City_Indian/W.P.C.I_Warning/781942
https://www.youtube.com/watch?v=m06XsQuzO4g&ab_channel=nickey0305

Technical info

Input File: 02 W.P.C.I Warning.mp3
Channels : 2
Sample Rate : 44100
Precision : 16-bit
Duration : 00:03:08.23 = 8300723 samples = 14116.9 CDDA sectors
File Size : 7.66M
Bit Rate : 326k
Sample Encoding: MPEG audio (layer I, II or III)
Comments :
Title=W.P.C.I Warning
Artist=City Indian
Album=1985 W.P.C.I Warning
Tracknumber=02/04
Year=2017
Genre=Heavy Metal



[ Hidden Text ]

Powered by Invision Power Board
© Invision Power Services