Printable Version of Topic

Click here to view this topic in its original format

Metal Area - Extreme Music Portal _ New Releases _ City Indian - Terror Boogie [ep] (1986)

Posted by: slack Aug 5 2022, 22:40:32

https://metalarea.org/images/audiocovers/2022_Aug/acov_tid367996.jpg

*Artist: City Indian
*Album: Terror Boogie [ep]
*Year: 1986
*Genre: Hardcore/Heavy/Speed Metal
*Country: Japan
*Format: mp3@CBR320kbps
*Size: 40MB

Tracklist:
01. Terror Boogie 03:41
02. Magic Lips 04:07
03. Despaired Crowd 02:36
04. Saturday Night Trap 03:19
05. Drunky Boxer 03:19
06. Prelude to Indian 01:41
******************************
Total playing time: 18:43

https://www.metal-archives.com/albums/City_Indian/Terror_Boogie/781940
https://www.youtube.com/watch?v=1MkwmI0K5SM&ab_channel=civilizationsdead

Technical info

Input File: 02 Magic Lips.mp3
Channels : 2
Sample Rate : 44100
Precision : 16-bit
Duration : 00:04:07.73 = 10924717 samples = 18579.5 CDDA sectors
File Size : 10.0M
Bit Rate : 324k
Sample Encoding: MPEG audio (layer I, II or III)
Comments :
Title=Magic Lips
Artist=City Indian
Album=1986 Terror Boogie
Tracknumber=02/06
Year=2017
Genre=Heavy Metal



[ Hidden Text ]

Posted by: Morda_Morda Aug 6 2022, 15:55:58

Неполное название: группа называется Warpainted City Indian.

Powered by Invision Power Board
© Invision Power Services