Printable Version of Topic

Click here to view this topic in its original format

Metal Area - Extreme Music Portal _ Archive _ Parasite Inc. - Follow The Blind [single] (2022)

Posted by: Andrew Aug 9 2022, 18:33:33

http://metalarea.org/images/audiocovers/2022_Aug/acov_tid368133.jpg

*Artist: Parasite Inc.
*Album: Follow The Blind [single]
*Year: 2022
*Genre: Melodic Death Metal
*Country: Germany
*Format: mp3@CBR320kbps
*Size: 11MB

Tracklist:
1. Follow the Blind 04:53
******************************
Total playing time: 4:53

https://www.facebook.com/ParasiteInc
https://parasiteinc.bandcamp.com/
https://www.youtube.com/watch?v=clqokxljXFM

Extended info
Benjamin Stelzer Drums (2007-present)
See also: ex-Satanic Syndrome
Kai Bigler Vocals, Guitars (2007-present)
Dominik Sorg Guitars (2014-present)
Lucien Mosesku Bass (2020-present)


Technical info

Input File: Parasite Inc. - Follow The Blind.mp3
Channels : 2
Sample Rate : 44100
Precision : 16-bit
Duration : 00:04:53.69 = 12951641 samples = 22026.6 CDDA sectors
File Size : 11.8M
Bit Rate : 321k
Sample Encoding: MPEG audio (layer I, II or III)
Comments :
Title=Follow the Blind
Artist=Parasite Inc.



[ Hidden Text ]

Posted by: скептик Aug 10 2022, 07:33:08

прошлые 2 альбома нравились, новый жду, хотя по трем песенкам с него ощущения неоднозначные 13.gif

Powered by Invision Power Board
© Invision Power Services