Printable Version of Topic

Click here to view this topic in its original format

Metal Area - Extreme Music Portal _ Archive _ Max Boras - Transhuman (2022)

Posted by: necroscum Sep 22 2022, 12:35:49

https://metalarea.org/images/audiocovers/2022_Sep/acov_tid369753.jpg

*Artist: Max Boras
*Album: Transhuman
*Year: 2022
*Genre: Instrumental/Progressive Metal
*Country: United States
*Format: mp3@CBR320kbps
*Size: 136MB

Tracklist:
01. Absolute Power 5:29
02. Transhuman 4:42
03. Download 6:02
04. I Do 6:36
05. ? 1:06
06. Corrupts 5:49
07. We Have Come 7:27
08. Is It Ours 5:04
09. Walk├╝re 6:36
10. Absolutely 9:58
******************************
Total playing time: 58:49

https://www.instagram.com/maxborasofficial/
https://maxboras.bandcamp.com/album/transhuman
https://www.youtube.com/watch?v=ag2L9wk7SA8

Technical info

Input File: 03 - Download.mp3
Channels : 2
Sample Rate : 44100
Precision : 16-bit
Duration : 00:06:01.00 = 15920100 samples = 27075 CDDA sectors
File Size : 14.6M
Bit Rate : 324k
Sample Encoding: MPEG audio (layer I, II or III)
Comments :
Title=Download
Artist=Max Boras
Album=Transhuman
Tracknumber=3
Year=2022
Discnumber=1



[ Hidden Text ]

Powered by Invision Power Board
© Invision Power Services