Printable Version of Topic

Click here to view this topic in its original format

Metal Area - Extreme Music Portal _ New Releases _ The Grotesquery - Cult Of Cthulhu Calling [ep] (2014)

Posted by: smysl Jan 25 2023, 00:43:58

https://metalarea.org/images/audiocovers/2023_Jan/acov_tid375733.jpg

*Artist: The Grotesquery
*Album: Cult Of Cthulhu Calling [ep]
*Year: 2014
*Genre: Death Metal
*Country: Sweden United States
*Format: mp3@CBR320kbps
*Size: 28MB

Tracklist:
1. Cult of Cthulhu Calling 06:34
2. The Lurking Fear 03:28
******************************
Total playing time: 10:02

https://www.facebook.com/THEGROTESQUERY
https://kamlee.bandcamp.com/album/the-grotesquery-cult-of-cthulhu-calling
https://thegrotesquery.bandcamp.com/music
https://www.youtube.com/watch?v=q84Z4ABSRs8

Technical info

Input File: 01 CULT OF CTHULHU CALLING.mp3
Channels : 2
Sample Rate : 44100
Precision : 16-bit
Duration : 00:06:34.79 = 17410107 samples = 29609 CDDA sectors
File Size : 16.0M
Bit Rate : 323k
Sample Encoding: MPEG audio (layer I, II or III)
Comments :
Title=CULT OF CTHULHU CALLING
Artist=THE GROTESQUERY
Album=CULT OF CTHULHU CALLING
Tracknumber=1
Year=2018
Genre=Death Metal



[ Hidden Text ]

Powered by Invision Power Board
© Invision Power Services