Printable Version of Topic

Click here to view this topic in its original format

Metal Area - Extreme Music Portal _ Archive _ The Silent Rage - Nuances Of Life (2023)

Posted by: Samaritianin May 25 2023, 18:46:43

https://metalarea.org/images/audiocovers/2023_May/acov_tid382014.jpg

*Artist: The Silent Rage
*Album: Nuances Of Life
*Year: 2023
*Genre: Heavy/Power Metal
*Country: Greece
*Format: mp3@CBR320kbps
*Size: 113MB

Tracklist:
1. The Serpent Lord 04:07
2. Code of Destruction 04:45
3. Carve Your Rage 03:53
4. Crows Fly Back 04:50
5. Another Fallen Dreamland 03:39
6. Scarlet Dawn 04:21
7. The Man in the Mirror 05:26
8. Exhaling Fear 04:02
9. Ghost of a Wayward God 05:15
10. Black Monday 06:07
11. Nuances of Life 03:52
******************************
Total playing time: 50:17

https://thesilentrage.bandcamp.com/
https://www.facebook.com/TheSilentRageOfficial

Extended info
Nikos Siglidis Guitars, Vocals
Stamatis "Revan" Katsafados Drums
Nick Sarbanis Guitars
Michael Rinakakis Vocals
George Haniotakis Bass



Technical info

Input File: 07 - The Man In The Mirror.mp3
Channels : 2
Sample Rate : 44100
Precision : 16-bit
Duration : 00:05:12.00 = 13759200 samples = 23400 CDDA sectors
File Size : 12.8M
Bit Rate : 327k
Sample Encoding: MPEG audio (layer I, II or III)
Comments :
Title=The Man In The Mirror
Artist=The Silent Rage
Album=Nuances Of Life
Tracknumber=7
Year=2023-05-26
Discnumber=1



[ Hidden Text ]

Powered by Invision Power Board
© Invision Power Services