Printable Version of Topic

Click here to view this topic in its original format

Metal Area - Extreme Music Portal _ Archive _ Akloleh - Golem (2023)

Posted by: kefka Nov 20 2023, 03:58:48

https://metalarea.org/images/audiocovers/2023_Nov/acov_tid388904.jpg

*Artist: Akloleh
*Album: Golem
*Year: 2023
*Genre: Black Metal
*Country: United States
*Format: mp3@CBR320kbps
*Size: 114MB

Tracklist:
1.May HaShem Avenge Their Blood 13:14
2.The Twelve Constellations 08:26
3.Our Supplication 03:12
4.Destroying Angel 13:54
5.Truth in Death 10:54
******************************
Total playing time: 49:40

https://akloleh.bandcamp.com/album/golem

Technical info

Input File: 2.The Twelve Constellations.mp3
Channels : 2
Sample Rate : 44100
Precision : 16-bit
Duration : 00:08:26.68 = 22344412 samples = 38000.7 CDDA sectors
File Size : 20.4M
Bit Rate : 322k
Sample Encoding: MPEG audio (layer I, II or III)
Comments :
Title=The Twelve Constellations
Artist=Akloleh
Album=Golem
Tracknumber=2/5
Year=2023
Discnumber=1/1



[ Hidden Text ]

Powered by Invision Power Board
© Invision Power Services