Printable Version of Topic

Click here to view this topic in its original format

Metal Area - Extreme Music Portal _ New Releases _ Greyhawk - Thunderheart (2024)

Posted by: Samaritianin Apr 1 2024, 18:36:09

https://metalarea.org/images/audiocovers/2024_Apr/acov_tid394920.jpg

*Artist: Greyhawk
*Album: Thunderheart
*Year: 2024
*Genre: Heavy/Power Metal
*Country: United States
*Format: mp3@CBR320kbps
*Size: 103MB

Tracklist:
1. Spellstone 04:07
2. Ombria (City of the Night) 05:14
3. Thunderheart 04:19
4. Rock & Roll City 04:26
5. Steadfast 06:34
6. Sacrifice of Steel 04:44
7. The Last Mile 05:53
8. Back in the Fight 03:52
9. The Golden Candle 05:29
******************************
Total playing time: 44:38

https://fighter-records.bandcamp.com/album/thunderheart
https://www.facebook.com/greyhawkheavymetal/

Extended info
FLAC-Rip
Darin Wall Bass
Jesse Berlin Guitars
Nate Butler Drums
Rev Taylor Vocals
Rob Steinway Guitars



Technical info

Input File: 07 - The Last Mile.mp3
Channels : 2
Sample Rate : 44100
Precision : 16-bit
Duration : 00:05:53.87 = 15605843 samples = 26540.5 CDDA sectors
File Size : 14.2M
Bit Rate : 322k
Sample Encoding: MPEG audio (layer I, II or III)
Comments :
Title=The Last Mile
Artist=Greyhawk
Album=Thunderheart
Tracknumber=7/9
Year=2024
Discnumber=1/1



[ Hidden Text ]

Posted by: Витон Apr 1 2024, 19:27:04

СПАСИБО!!!

Posted by: avather Apr 23 2024, 21:01:37

Ох, как же офигенно-то 20.gif 20.gif 20.gif

Powered by Invision Power Board
© Invision Power Services