Printable Version of Topic

Click here to view this topic in its original format

Metal Area - Extreme Music Portal _ New Releases _ Blood Gulch - Blood Gulch Destroys Annapolis (Live In Annapolis) [live] (2024)

Posted by: Necrokilldozer Apr 1 2024, 18:55:24

https://metalarea.org/images/audiocovers/2024_Apr/acov_tid394923.jpg

*Artist: Blood Gulch
*Album: Blood Gulch Destroys Annapolis (Live In Annapolis) [live]
*Year: 2024
*Genre: Thrash/Death Metal
*Country: United States
*Format: mp3@CBR320kbps
*Size: 70MB

Tracklist:
1. 117 05:23
2. Somewhere Between 04:26
3. Suspended Disbelief 03:33
4. Drug 03:52
5. Winter Contingency 07:14
6. Pull the Plug (Death cover) 04:54
******************************
Total playing time: 29:22

https://bloodgulchnoise.bandcamp.com/album/blood-gulch-destroys-annapolis-live-in-annapolis

Extended info
Line - up:

Gavin Miele - Bass, Vocals
Julian Marks - Drums
Luke Eggleston - Guitars


Technical info

Input File: 01. 117.mp3
Channels : 2
Sample Rate : 44100
Precision : 16-bit
Duration : 00:05:23.52 = 14267276 samples = 24264.1 CDDA sectors
File Size : 12.9M
Bit Rate : 320k
Sample Encoding: MPEG audio (layer I, II or III)
Comments :
Title=117
Artist=Blood Gulch
Album=Blood Gulch Destroys Annapolis (Live in Annapolis) (Live)
Tracknumber=1
Year=2024
Genre=Thrash | Death Metal



[ Hidden Text ]

Powered by Invision Power Board
© Invision Power Services