Printable Version of Topic

Click here to view this topic in its original format

Metal Area - Extreme Music Portal _ New Releases _ Ingested - The Tide Of Death And Fractured Dreams (2024)

Posted by: Samaritianin Apr 1 2024, 23:35:32

https://metalarea.org/images/audiocovers/2024_Apr/acov_tid394928.jpg

*Artist: Ingested
*Album: The Tide Of Death And Fractured Dreams
*Year: 2024
*Genre: Slamming Brutal Death Metal/Deathcore
*Country: United Kingdom
*Format: mp3@CBR320kbps
*Size: 107MB

Tracklist:
1. Paragon of Purity 04:22
2. Endless Machine 03:37
3. Where No Light Shines 04:31
4. Expect to Fail 04:17
5. Starve the Fire 04:06
6. Numinous 03:50
7. In Nothingness 04:39
8. Pantheon 03:30
9. Kingdoms of Sand 05:23
10. A Path Once Lost 06:51
******************************
Total playing time: 45:06

https://ingested.bandcamp.com/album/the-tide-of-death-and-fractured-dreams
https://www.facebook.com/ingesteduk

Extended info
Lyn Jeffs Drums (2006-present)
See also: ex-Dark Earth, ex-Nexus Inferis, Mal, ex-Crepitation, ex-Asphyxiated (live), ex-Annotations of an Autopsy, ex-Decapity, ex-Trephined, ex-Vengeance
Sean Hynes Guitars, Vocals (backing) (2006-present)
See also: ex-Age of Suffering, ex-Crepitation, ex-Decrepit Womb, ex-Annotations of an Autopsy
Jay Evans Vocals (2006-present)
See also: ex-Age of Suffering


Technical info

Input File: 07. In Nothingness.mp3
Channels : 2
Sample Rate : 44100
Precision : 16-bit
Duration : 00:04:39.00 = 12303900 samples = 20925 CDDA sectors
File Size : 11.5M
Bit Rate : 331k
Sample Encoding: MPEG audio (layer I, II or III)
Comments :
Title=In Nothingness
Artist=Ingested
Album=The Tide of Death and Fractured Dreams
Tracknumber=07
Year=2024
Genre=Metal



[ Hidden Text ]

Posted by: Bannanik Apr 2 2024, 07:54:05

Большое спасибо за загрузку! Для меня это немедленная покупка.

Posted by: Bloodn Lord Apr 2 2024, 08:19:35

Еееееееееее!!!
Мои любимцы! Облога топ. Посмотрим, что они сделали)

Posted by: Bloodn Lord Apr 2 2024, 10:16:41

Какой прилизанный звук по первым ощущениям(( Ну как так(( Хотелось, разумеется, разноса.
Послушаю дальше, вдруг удивят (что вряд ли).

Posted by: Winner Apr 3 2024, 17:28:45

Спасибо! Мне понравился! m0114.gif

Posted by: andris Apr 15 2024, 08:09:44

местами очень качёво, а если бы ещё побольше таких жирных разухабистых соляков как во второй теме Endless Machine для меня бы сразу в топ!!!!

Posted by: Brutal Apr 15 2024, 08:15:02

все-таки я остаюсь при своем мнении,что первые два альбом - огонь, а остальные можно не слушать.

Posted by: mittal Apr 15 2024, 10:26:19

Альбом очень хорош: кач, атмосферка, соло-аранжировки, звук жирный и плотный, риффы достаточно цепляющие, в общем - всё збс. Только предпоследняя тема не нужна.

Posted by: 6666666 May 9 2024, 21:29:06

Шестая песня неплоха, но альбом ей спасти невозможно.
Под удаление.

Powered by Invision Power Board
© Invision Power Services