Printable Version of Topic

Click here to view this topic in its original format

Metal Area - Extreme Music Portal _ New Releases _ Urizen Society - Solium Ardens: The Ring Of Coagula (2023)

Posted by: kefka Apr 2 2024, 03:17:34

https://metalarea.org/images/audiocovers/2024_Apr/acov_tid394933.jpg

*Artist: Urizen Society
*Album: Solium Ardens: The Ring Of Coagula
*Year: 2023
*Genre: Symphonic Black Metal
*Country: China
*Format: mp3@CBR320kbps
*Size: 118MB

Tracklist:
1.Oris 05:42
2.Дapшa 05:10
3.Hiisi 11:34
4.Solva 06:23
5.Coagula 06:48
6.Maladie 09:12
7.Jezebel 04:11
8.De Verville 01:01
******************************
Total playing time: 50:01

https://vrzn.bandcamp.com/album/solium-ardens-the-ring-of-coagula

Technical info

Input File: 2.Дapшa.mp3
Channels : 2
Sample Rate : 44100
Precision : 16-bit
Duration : 00:05:10.25 = 13682025 samples = 23268.8 CDDA sectors
File Size : 12.9M
Bit Rate : 333k
Sample Encoding: MPEG audio (layer I, II or III)
Comments :
Title=Дapшa
Artist=Urizen Society
Album=Solium Ardens: The Ring of Coagula
Tracknumber=2/8
Year=2023
Discnumber=1/1



[ Hidden Text ]

Powered by Invision Power Board
© Invision Power Services