Printable Version of Topic

Click here to view this topic in its original format

Metal Area - Extreme Music Portal _ New Releases _ Holyarrow - Long Live Victory (2024)

Posted by: kefka Apr 2 2024, 10:31:05

https://metalarea.org/images/audiocovers/2024_Apr/acov_tid394935.jpg

*Artist: Holyarrow
*Album: Long Live Victory
*Year: 2024
*Genre: Epic Black Metal
*Country: China
*Format: mp3@CBR320kbps
*Size: 108MB

Tracklist:
1.血與榮耀 / Blood and Honor 06:51
2.壹玖壹壹·覺醒 / 1911 Han Awakening 08:09
3.吾之榮耀即吾之忠誠 / My Honor is My Loyalty 06:41
4.伍壹零 / 510 02:34
5.國魂不死 / Immortal Nation 06:18
6.空的進軍 / March to the Sky 07:23
7.勝利萬歲 / Long Live Victory 06:12
8.意誌的勝利 / Triumph of the Will 01:54
******************************
Total playing time: 46:02

https://pestproductions.bandcamp.com/album/long-live-victory

Technical info

Input File: 5.Immortal Nation.mp3
Channels : 2
Sample Rate : 44100
Precision : 16-bit
Duration : 00:06:18.54 = 16693526 samples = 28390.4 CDDA sectors
File Size : 15.5M
Bit Rate : 327k
Sample Encoding: MPEG audio (layer I, II or III)
Comments :
Title=Immortal Nation
Artist=Holyarrow
Album=Long Live Victory
Tracknumber=5/8
Year=2024
Discnumber=1/1



[ Hidden Text ]

Posted by: mondblut Apr 2 2024, 16:41:41

Каждому уважающему себя бутик-лейблу нужна собственная Вотхана, ога.

Powered by Invision Power Board
© Invision Power Services