Printable Version of Topic

Click here to view this topic in its original format

Metal Area - Extreme Music Portal _ New Releases _ Valpur - Verses Of Vile And Grim [ep] (2023)

Posted by: smysl Apr 2 2024, 10:46:33

https://metalarea.org/images/audiocovers/2024_Apr/acov_tid394936.jpg

*Artist: Valpur
*Album: Verses Of Vile And Grim [ep]
*Year: 2023
*Genre: Black/Death Metal
*Country: Finland
*Format: mp3@CBR320kbps
*Size: 46MB

Tracklist:
1.The Putrid Icon of Pestilence 04:31
2.Nuclear Seraphim 03:30
3.Conjuration 04:45
4.Lycanthrophian Passage 04:11
******************************
Total playing time: 16:57

https://www.facebook.com/valpurband
https://www.youtube.com/watch?v=GBbJjSHJze4

Technical info

Input File: 01 The Putrid Icon of Pestilence.mp3
Channels : 2
Sample Rate : 44100
Precision : 16-bit
Duration : 00:04:31.20 = 11959700 samples = 20339.6 CDDA sectors
File Size : 10.9M
Bit Rate : 322k
Sample Encoding: MPEG audio (layer I, II or III)
Comments :
Title=The Putrid Icon of Pestilence
Artist=Valpur
Album=Verses of Vile and Grim
Tracknumber=1/4
Year=2023
Genre=Black Metal
Discnumber=1/1



[ Hidden Text ]

Posted by: Fryz Apr 2 2024, 18:16:13

Такое себе, прямо сказать. Если совсем прямо, то хлам.

Posted by: Mortis Apr 2 2024, 19:46:21

Какой хлам??? Мощь просто нереальная!!! Рифы отличные!!! Вокал супер!!!

Powered by Invision Power Board
© Invision Power Services