Printable Version of Topic

Click here to view this topic in its original format

Metal Area - Extreme Music Portal _ New Releases _ Encryptment - Mangel Fr​å​n S​ö​derort [demo] (2019)

Posted by: smysl Apr 2 2024, 12:49:48

https://metalarea.org/images/audiocovers/2024_Apr/acov_tid394938.jpg

*Artist: Encryptment
*Album: Mangel Fr​å​n S​ö​derort [demo]
*Year: 2019
*Genre: Blackened Death Metal/Crust
*Country: Sweden
*Format: mp3@CBR320kbps
*Size: 20MB

Tracklist:
1.Grå Utopi 02:39
2.Min Dröm 02:33
3.Knivar Och Öppna Sår 03:09
******************************
Total playing time: 8:21

https://www.facebook.com/profile.php?id=100056774124551
https://encryptment.bandcamp.com/album/mangel-fr-n-s-derort
https://www.youtube.com/watch?v=q1_Lw1bmF_U

Technical info

Input File: 01 Grå Utopi.mp3
Channels : 2
Sample Rate : 44100
Precision : 16-bit
Duration : 00:02:39.91 = 7051899 samples = 11993 CDDA sectors
File Size : 6.47M
Bit Rate : 324k
Sample Encoding: MPEG audio (layer I, II or III)
Comments :
Title=Grå Utopi
Artist=Encryptment
Album=Mangel Från Söderort
Tracknumber=1/3
Year=2019
Genre=Death Metal
Discnumber=1/1



[ Hidden Text ]

Powered by Invision Power Board
© Invision Power Services