Printable Version of Topic

Click here to view this topic in its original format

Metal Area - Extreme Music Portal _ New Releases _ Belati Tajam - Perjalanan Dimensi (2024)

Posted by: Samaritianin Apr 2 2024, 12:56:46

https://metalarea.org/images/audiocovers/2024_Apr/acov_tid394939.jpg

*Artist: Belati Tajam
*Album: Perjalanan Dimensi
*Year: 2024
*Genre: Death Metal/Grindcore
*Country: Indonesia
*Format: mp3@CBR320kbps
*Size: 72MB

Tracklist:
01. Balyani (Perjalanan Dimensi)
02. Darah Muda
03. Fihimafihi
04. Aku Cinta Indonesia
05. Kita Persid Jember
06. Serangan Panik
07. Romansa Pecahan Martyr
08. Topeng Peradaban Murka
09. Serigala Senyap
******************************
Total playing time: 31:06

https://belatitajam.bandcamp.com/album/perjalanan-dimensi

Extended info
FLAC-Rip


Technical info

Input File: 04. Aku Cinta Indonesia.mp3
Channels : 2
Sample Rate : 44100
Precision : 16-bit
Duration : 00:03:34.82 = 9473518 samples = 16111.4 CDDA sectors
File Size : 8.71M
Bit Rate : 324k
Sample Encoding: MPEG audio (layer I, II or III)
Comments :
Title=Aku Cinta Indonesia
Artist=Belati Tajam
Album=Perjalanan Dimensi
Tracknumber=4/9
Year=2024
Genre=Death Metal, Grindcore
Discnumber=1/1



[ Hidden Text ]

Powered by Invision Power Board
© Invision Power Services