Printable Version of Topic

Click here to view this topic in its original format

Metal Area - Extreme Music Portal _ New Releases _ Speed Hell - Speed Violent Attack [ep] (2024)

Posted by: Samaritianin Apr 2 2024, 13:20:32

https://metalarea.org/images/audiocovers/2024_Apr/acov_tid394940.jpg

*Artist: Speed Hell
*Album: Speed Violent Attack [ep]
*Year: 2024
*Genre: Black/Speed Metal
*Country: Argentina
*Format: mp3@CBR320kbps
*Size: 23MB

Tracklist:
1. Speed Violent Attack 03:01
2. Nekrovomit 03:21
3. Alcoholocaust 03:27
******************************
Total playing time: 9:49

https://elprofanador666.bandcamp.com/album/speed-violent-attack
https://www.facebook.com/profile.php?id=61557089849562

Extended info
Rolfi 666 Vocals, Guitars, Bass
See also: El Profanador


Technical info

Input File: 03 - Alcoholocaust.mp3
Channels : 2
Sample Rate : 44100
Precision : 16-bit
Duration : 00:03:27.00 = 9128700 samples = 15525 CDDA sectors
File Size : 8.46M
Bit Rate : 327k
Sample Encoding: MPEG audio (layer I, II or III)
Comments :
Title=Alcoholocaust
Artist=Speed Hell
Album=Speed Violent Attack
Tracknumber=3
Year=2024-03-03
Genre=ロック
Discnumber=1



[ Hidden Text ]

Powered by Invision Power Board
© Invision Power Services