Printable Version of Topic

Click here to view this topic in its original format

Metal Area - Extreme Music Portal _ New Releases _ Evasor - Into The Xorizaion [ep] (2024)

Posted by: Samaritianin Apr 2 2024, 13:41:33

https://metalarea.org/images/audiocovers/2024_Apr/acov_tid394941.jpg

*Artist: Evasor
*Album: Into The Xorizaion [ep]
*Year: 2024
*Genre: Speed/Thrash Metal/Punk
*Country: Chile
*Format: mp3@CBR320kbps
*Size: 38MB

Tracklist:
1. Este año no hay cosecha 03:44
2. Degrindwan (Laverde) 03:20
3. Traición antisocial 03:17
4. Hotel 5 calaveras 03:11
5. Kiling cenetas 02:40
******************************
Total playing time: 16:12

https://www.facebook.com/profile.php?id=100066916745787&locale=de_DE

Extended info
David Urbina Bass (2019-present)
Pablo Santidrián Drums (2019-present)
See also: Dezaztre Natural, Levantamuerto, Sin Salida, Zaumerio en la Tumba, ex-Vadca
Jose Tomas Riquelme Prado Guitars, Vocals (2019-present)
See also: Levantamuerto, Faltan Moneys, Üden, ex-Avenida XxX


Technical info

Input File: 02 - Degrindwan (Laverde).mp3
Channels : 2
Sample Rate : 44100
Precision : 16-bit
Duration : 00:03:20.00 = 8820000 samples = 15000 CDDA sectors
File Size : 8.24M
Bit Rate : 330k
Sample Encoding: MPEG audio (layer I, II or III)
Comments :
Title=Degrindwan (Laverde)
Artist=Evasor
Album=Into the Xorizaion
Tracknumber=2
Year=2024-01-28
Genre=メタル
Discnumber=1



[ Hidden Text ]

Powered by Invision Power Board
© Invision Power Services