Printable Version of Topic

Click here to view this topic in its original format

Metal Area - Extreme Music Portal _ New Releases _ Scolos - ArthroGod (2024)

Posted by: Samaritianin Apr 2 2024, 18:12:33

https://metalarea.org/images/audiocovers/2024_Apr/acov_tid394946.jpg

*Artist: Scolos
*Album: ArthroGod
*Year: 2024
*Genre: Blackened Old School Death Metal
*Country: Bulgaria
*Format: mp3@CBR320kbps
*Size: 99MB

Tracklist:
1. Intro
2. Progression Towards Divinity
3. Domain of Shadows
4. March of the Firespawn
5. The Undead
6. ArthroGod
7. Funereal Void
8. Obscure Anthropogenesis
9. Dawn of Singularity
10. Solar Winds
11. Shrine of Desolate Souls
12. Divine Madness
******************************
Total playing time: 41:51

https://scolos.bandcamp.com/album/arthrogod
https://www.facebook.com/ScolosBG/

Extended info
Velin Valchev Drums (2014-present)
See also: Black:I, The Revenge Project, ex-Hellrider
Yavor Mechev Guitars (2015-2018, 2024-present)
See also: Facepalm Death, Vokyl, Warscum, ex-Demenzia, ex-Khanъ, ex-T-Show, ex-The Lost Underdogs
Giuliano Bankov Guitars (2016-present)
See also: Black:I, Gods of Ancient, ex-Insanity Redefined, ex-Hellrider
Kveldulf Vocals (2017-present)
See also: Impenitence, Occultum, ex-The Benegesserit, The Dead Frequency
Luxferre Bass (2024-present)
See also: Corporal Blast, ex-Vultur


Technical info

Input File: Scolos - ArthroGod - 09. Dawn of Singularity.mp3
Channels : 2
Sample Rate : 44100
Precision : 16-bit
Duration : 00:03:40.80 = 9737368 samples = 16560.1 CDDA sectors
File Size : 9.00M
Bit Rate : 326k
Sample Encoding: MPEG audio (layer I, II or III)
Comments :
Title=Dawn of Singularity
Artist=Scolos
Album=ArthroGod
Tracknumber=9
Year=2024
Genre=Metal



[ Hidden Text ]

Powered by Invision Power Board
© Invision Power Services