Printable Version of Topic

Click here to view this topic in its original format

Metal Area - Extreme Music Portal _ New Releases _ The Device - The Spot [ep] (2024)

Posted by: Necrokilldozer Apr 2 2024, 18:14:12

https://metalarea.org/images/audiocovers/2024_Apr/acov_tid394947.jpg

*Artist: The Device
*Album: The Spot [ep]
*Year: 2024
*Genre: Instrumental Psychedelic Stoner/Doom Metal
*Country: Poland
*Format: mp3@CBR320kbps
*Size: 86MB

Tracklist:
1. Samosieja 12:37
2. Miedzyń haze 13:26
3. Sahara 10:34
******************************
Total playing time: 36:37

https://thedevice.bandcamp.com/album/the-spot

Technical info

Input File: 02. Miedzyń Haze.mp3
Channels : 2
Sample Rate : 44100
Precision : 16-bit
Duration : 00:13:26.60 = 35571236 samples = 60495.3 CDDA sectors
File Size : 32.3M
Bit Rate : 320k
Sample Encoding: MPEG audio (layer I, II or III)
Comments :
Title=Miedzyn Haze
Artist=The Device
Album=The Spot (EP)
Tracknumber=2
Year=2024
Genre=Psychedelic Stoner | Doom Metal



[ Hidden Text ]

Powered by Invision Power Board
© Invision Power Services