Printable Version of Topic

Click here to view this topic in its original format

Metal Area - Extreme Music Portal _ New Releases _ Aequorea - Departure (2024)

Posted by: Samaritianin Apr 2 2024, 19:11:01

https://metalarea.org/images/audiocovers/2024_Apr/acov_tid394950.jpg

*Artist: Aequorea
*Album: Departure
*Year: 2024
*Genre: Doom/Post-Metal
*Country: United States
*Format: mp3@CBR320kbps
*Size: 93MB

Tracklist:
1. Cursed
2. Translucent Maze
3. Breathing Tower
4. Illusions in Bardo
5. Voices of the Fog
******************************
Total playing time: 40:53

https://aequorea.bandcamp.com/album/departure
https://www.facebook.com/aequorea

Extended info
Clay Powers Drums, Vocals
See also: Offering to the Sun, ex-The River Runs Black
James Bratt Guitars, Vocals
See also: Desiccation
Falon Stoval Bass, Vocals (2009-present)


Technical info

Input File: 04 - Illusions in Bardo.mp3
Channels : 2
Sample Rate : 44100
Precision : 16-bit
Duration : 00:09:39.17 = 25541353 samples = 43437.7 CDDA sectors
File Size : 23.2M
Bit Rate : 320k
Sample Encoding: MPEG audio (layer I, II or III)
Comments :
Title=Illusions in Bardo
Artist=Aequorea
Album=Departure
Tracknumber=4
Year=2024



[ Hidden Text ]

Powered by Invision Power Board
© Invision Power Services