Printable Version of Topic

Click here to view this topic in its original format

Metal Area - Extreme Music Portal _ New Releases _ Septos - Necroxia [ep] (2024)

Posted by: Necrokilldozer Apr 2 2024, 19:11:03

https://metalarea.org/images/audiocovers/2024_Apr/acov_tid394951.jpg

*Artist: Septos
*Album: Necroxia [ep]
*Year: 2024
*Genre: Death Metal/Goregrind
*Country: Argentina
*Format: flac
*Size: 59MB

Tracklist:
1. Verdugos Sangrientos 01:29
2. Putrefactos 03:05
3. Mis Hijos Necrófagos 03:22
******************************
Total playing time: 7:56

Extended info
Line - up:

Cóndor Gómez - Drums
Emanuel Balmaceda - Guitars
Yxmil Mercado - Vocals



Technical info

Input File: 02. Putrefactos.flac
Channels : 2
Sample Rate : 44100
Precision : 16-bit
Duration : 00:03:05.64 = 8186506 samples = 13922.6 CDDA sectors
File Size : 21.6M
Bit Rate : 930k
Sample Encoding: 16-bit FLAC
Comments :
Url=https://www.qobuz.com/fr-fr/album/necroxia-septos/n1xwrjt7mdula
Title=Putrefactos
TrackNumber=2
Copyright=2024 SEPTOS 2024 SEPTOS
Album=Necroxia (EP)
Genre=Death Metal
Artist=Septos
Album Artist=Septos
ISRC=TCAHU2489632
Date=2024
Composer=Emanuel Balmaceda
Composer=Esteban Funes
Organization=Septos
INVOLVEDPEOPLE=Emanuel Balmaceda, Songwriter, ComposerLyricist - Esteban Funes, Songwriter, ComposerLyricist - SEPTOS, MainArtist
ITUNESADVISORY=0
LABEL=Septos
MEDIATYPE=album
UPC=0859783128803
Description=



[ Hidden Text ]

Powered by Invision Power Board
© Invision Power Services