Printable Version of Topic

Click here to view this topic in its original format

Metal Area - Extreme Music Portal _ Archive _ Watchman - Cursed (2024)

Posted by: Samaritianin Apr 2 2024, 19:31:37

https://metalarea.org/images/audiocovers/2024_Apr/acov_tid394953.jpg

*Artist: Watchman
*Album: Cursed
*Year: 2024
*Genre: Stoner/Doom Metal
*Country: United States
*Format: mp3@CBR320kbps
*Size: 90MB

Tracklist:
1. Too Late to Pray 08:49
2. No Peace 05:00
3. Left to Die 05:14
4. Cursed 04:37
5. He on High 05:31
6. Black Wings 03:06
7. You Will Not Be Saved 06:38
******************************
Total playing time: 38:55

https://wetrecords.bandcamp.com/album/cursed

Extended info
Roy Waterford Everything


Technical info

Input File: 07 - You Will Not Be Saved.mp3
Channels : 2
Sample Rate : 44100
Precision : 16-bit
Duration : 00:06:38.00 = 17551800 samples = 29850 CDDA sectors
File Size : 16.1M
Bit Rate : 324k
Sample Encoding: MPEG audio (layer I, II or III)
Comments :
Title=You Will Not Be Saved
Artist=Watchman
Album=Cursed
Tracknumber=7
Year=2024-03-13
Genre=メタル
Discnumber=1



[ Hidden Text ]

Powered by Invision Power Board
© Invision Power Services