Printable Version of Topic

Click here to view this topic in its original format

Metal Area - Extreme Music Portal _ New Releases _ The Rottening - Seeds Of Death [ep] (2024)

Posted by: Samaritianin Apr 2 2024, 21:45:40

https://metalarea.org/images/audiocovers/2024_Apr/acov_tid394956.jpg

*Artist: The Rottening
*Album: Seeds Of Death [ep]
*Year: 2024
*Genre: Death Metal
*Country: Sweden
*Format: mp3@CBR320kbps
*Size: 51MB

Tracklist:
1. Ode to Rot 02:32
2. Starless Void 04:15
3. Silence fo Your God 04:32
4. Maleficarum 04:10
5. Seeds of Death 05:30
******************************
Total playing time: 20:59

https://personal-records.bandcamp.com/album/seeds-of-death
https://www.facebook.com/therottening/

Extended info
Johan Thorsell Bass
See also: ex-Intestinal
Jonas Liimatainen Drums
See also: ex-Intestinal
Niklas Lindberg Guitars
See also: ex-Intestinal
Johan Widlund Guitars
See also: ex-Intestinal
Herman Hermansson Vocals
See also: Fornhem


Technical info

Input File: 05. Seeds of Death.mp3
Channels : 2
Sample Rate : 44100
Precision : 16-bit
Duration : 00:05:30.00 = 14553000 samples = 24750 CDDA sectors
File Size : 13.8M
Bit Rate : 335k
Sample Encoding: MPEG audio (layer I, II or III)
Comments :
Title=Seeds of Death
Artist=The Rottening
Album=Seeds of Death
Tracknumber=05
Year=2024
Genre=Metal



[ Hidden Text ]

Posted by: Andrew Apr 3 2024, 12:50:21

https://soundcloud.com/therottening

Powered by Invision Power Board
© Invision Power Services