Printable Version of Topic

Click here to view this topic in its original format

Metal Area - Extreme Music Portal _ New Releases _ Toxic Pub - To Not Die Blind (2024)

Posted by: Samaritianin May 5 2024, 00:40:17

https://metalarea.org/images/audiocovers/2024_May/acov_tid396588.jpg

*Artist: Toxic Pub
*Album: To Not Die Blind
*Year: 2024
*Genre: Thrash Metal
*Country: Greece
*Format: mp3@CBR320kbps
*Size: 82MB

Tracklist:
01. Toxic Pub
02. Panic Attack
03. ..To Not Die Blind
04. Still Unformed
05. The End is Nigh
06. Thin Line
07. Stoned to Death
08. Delusions
******************************
Total playing time: 34:49

https://toxicpubofficial.bandcamp.com/album/live-demo-2021

Extended info
Adriano Ferro Bass (2020-present)
Dimitris Fourniotis Drums (2020-present)
Stephanos Konstantinou Guitars (lead) (2020-present)
See also: Typhus
George Kokolios Vocals, Guitar (2020-present)


Technical info

Input File: 07 - Stoned to Death.mp3
Channels : 2
Sample Rate : 44100
Precision : 16-bit
Duration : 00:05:38.00 = 14905800 samples = 25350 CDDA sectors
File Size : 13.9M
Bit Rate : 328k
Sample Encoding: MPEG audio (layer I, II or III)
Comments :
Title=Stoned to Death
Artist=Toxic Pub
Album=To Not Die Blind
Tracknumber=7
Year=2024-05-05
Genre=Metal
Discnumber=1



[ Hidden Text ]

Posted by: Genuine Thrashiac May 15 2024, 15:30:05

bandcamp ссылка, как это водится у Samaritianin, не представляет данный релиз, а ведёт на наличие живой демки
(их дебютного релиза) https://metalarea.org/forum/index.php?showtopic=359783

Актуальная для данного релиза ссылка https://toxicpubofficial.bandcamp.com/album/to-not-die-blind

Powered by Invision Power Board
© Invision Power Services