Printable Version of Topic

Click here to view this topic in its original format

Metal Area - Extreme Music Portal _ Archive _ Selk'nam - Kamuk [ep] (2024)

Posted by: Necrokilldozer May 13 2024, 18:11:44

https://metalarea.org/images/audiocovers/2024_May/acov_tid397061.jpg

*Artist: Selk'nam
*Album: Kamuk [ep]
*Year: 2024
*Genre: Atmospheric Black Metal
*Country: Argentina
*Format: mp3@CBR320kbps
*Size: 33MB

Tracklist:
1. Kojh 06:46
2. Chalu 07:17
******************************
Total playing time: 14:03

https://selk-nam.bandcamp.com/album/kamuk

Technical info

Input File: 01. Kojh.mp3
Channels : 2
Sample Rate : 44100
Precision : 16-bit
Duration : 00:06:46.10 = 17908966 samples = 30457.4 CDDA sectors
File Size : 16.3M
Bit Rate : 322k
Sample Encoding: MPEG audio (layer I, II or III)
Comments :
Title=Kojh
Artist=Selk'nam
Album=Kamuk (EP)
Tracknumber=1
Year=2024
Genre=Atmospheric Black Metal



[ Hidden Text ]

Posted by: Evrom May 15 2024, 13:54:21

thanks! good black metal with atmospheric & raw aspects
"name your price" on bandcamp

Powered by Invision Power Board
© Invision Power Services