Printable Version of Topic

Click here to view this topic in its original format

Metal Area - Extreme Music Portal _ New Releases _ Necropsyum - Eclipse Of The Black Sun (2024)

Posted by: smysl May 14 2024, 17:20:54

https://metalarea.org/images/audiocovers/2024_May/acov_tid397094.jpg

*Artist: Necropsyum
*Album: Eclipse Of The Black Sun
*Year: 2024
*Genre: Black Metal
*Country: Brazil
*Format: mp3@CBR320kbps
*Size: 74MB

Tracklist:
1.In the name of... Ghosts of the Fallen 00:59
2.The Call of the Black Eagles 03:59
3.Iron Warrior's Blood Rites 06:01
4.Eternal Cries of Triumph 06:01
5.March Towards Death and Ruin 01:58
6.Reign of the Dead Shadows 05:16
7.Ancient Kingdom's Kommando 06:01
8.Blood & Honour 01:28
******************************
Total playing time: 31:43

https://necropsyum.bandcamp.com/music
https://www.youtube.com/watch?v=rCMFFrW-HWw

Technical info

Input File: 02 The Call of the Black Eagles.mp3
Channels : 2
Sample Rate : 44100
Precision : 16-bit
Duration : 00:03:59.51 = 10562259 samples = 17963 CDDA sectors
File Size : 9.72M
Bit Rate : 325k
Sample Encoding: MPEG audio (layer I, II or III)
Comments :
Title=The Call of the Black Eagles
Artist=Necropsyum
Album=Eclipse Of The Black Sun
Tracknumber=2
Year=2024
Genre=Black Metal



[ Hidden Text ]

Posted by: Evrom May 16 2024, 08:41:09

good release ! finnish-styled black metal (if you like Goatmoon , Satanic Warmaster ... ) 20.gif
"name your price" on bandcamp

Powered by Invision Power Board
© Invision Power Services