Printable Version of Topic

Click here to view this topic in its original format

Metal Area - Extreme Music Portal _ Archive _ Desolation Temple - Desolation Temple (2024)

Posted by: Samaritianin May 14 2024, 19:56:16

https://metalarea.org/images/audiocovers/2024_May/acov_tid397101.jpg

*Artist: Desolation Temple
*Album: Desolation Temple
*Year: 2024
*Genre: Atmospheric Black Metal
*Country: Brazil
*Format: mp3@CBR320kbps
*Size: 76MB

Tracklist:
1. Through the Darkness Line
2. Diffuse Shadows
3. Parallels Universe
4. Inverted Reality
5. Lost Memories
6. Drifting Souls
7. Eternal Regret...
8. The Creator’s Pride (Amen Corner cover)
******************************
Total playing time: 32:52

https://desolationtemple.bandcamp.com/

Extended info
Rafael Ribeiro Guitars, Bass, Keyboards (2023-present)
See also: Pagan Throne, Continuum Shift, ex-Angelique, ex-Unnature
Rodrigo Garm Vocals, Lyrics (2023-present)
See also: Pagan Throne, ex-Bloodythiirsty


Technical info

Input File: 07 - Eternal Regret.mp3
Channels : 2
Sample Rate : 44100
Precision : 16-bit
Duration : 00:04:26.00 = 11730600 samples = 19950 CDDA sectors
File Size : 10.8M
Bit Rate : 325k
Sample Encoding: MPEG audio (layer I, II or III)
Comments :
Title=Eternal Regret...
Artist=Desolation Temple
Album=Desolation Temple
Tracknumber=7
Year=2024-05-15
Genre=Metal
Discnumber=1



[ Hidden Text ]

Posted by: Evrom May 16 2024, 08:58:37

modern black metal with atmospheric & melodic aspects
full album youtube preview :
https://youtu.be/VKNVD-TG9CY?si=YAOsvjdstmk_B1XM

Powered by Invision Power Board
© Invision Power Services