Printable Version of Topic

Click here to view this topic in its original format

Metal Area - Extreme Music Portal _ New Releases _ Caribdys - Libertad (2024)

Posted by: kefka May 15 2024, 06:14:37

https://metalarea.org/images/audiocovers/2024_May/acov_tid397107.jpg

*Artist: Caribdys
*Album: Libertad
*Year: 2024
*Genre: Power Metal
*Country: Mexico
*Format: mp3@CBR320kbps
*Size: 113MB

Tracklist:
01.El honor de un caballero 03:56
02.Alma de noche 05:09
03.Vampire Killer 05:40
04.Baljhet 04:33
05.Con Valor 04:51
06.Mi luna 05:46
07.El grito de la mandragora 03:22
08.Una segunda oportunidad 04:06
09.Corazon de metal 05:42
10.Libertad 05:25
******************************
Total playing time: 48:30

https://www.facebook.com/Caribdys/
https://www.youtube.com/watch?v=c4xnFvPbrpw&list=OLAK5uy_mvMLDLyKoIxs0mS_LBj3C0WVyzmwa52t0

Technical info

Input File: 7.El grito de la mandragora.mp3
Channels : 2
Sample Rate : 44100
Precision : 16-bit
Duration : 00:03:21.73 = 8896337 samples = 15129.8 CDDA sectors
File Size : 8.41M
Bit Rate : 333k
Sample Encoding: MPEG audio (layer I, II or III)
Comments :
Title=El grito de la mandragora
Artist=Caribdys
Album=Libertad
Tracknumber=7/10
Year=2024
Discnumber=1/1



[ Hidden Text ]

Posted by: hellraiser69 May 15 2024, 11:42:01

Line-Up:

Bruno Kane de Loera: Drums (Soul Skinner, ex-Forgotten Realms, ex-Panicomio, ex-TurboRocker)
Axis Ferum: Guitars (ex-Soul Skinner, ex-Mandra, ex-Nameless)
Lord Rich CM: Guitars
Dr. Asphyxia: Keyboards
Magnus Palacios: Vocals (Forgotten Realms, Disenteria, Gerd)
Alberto Kureru: Bass (ex-Forgotten Realms, ex-sachiel in Darkness (live))

Powered by Invision Power Board
© Invision Power Services