Printable Version of Topic

Click here to view this topic in its original format

Metal Area - Extreme Music Portal _ New Releases _ Sons Of Cult - Desolation [ep] (2024)

Posted by: necroscum May 15 2024, 13:38:12

https://metalarea.org/images/audiocovers/2024_May/acov_tid397118.jpg

*Artist: Sons Of Cult
*Album: Desolation [ep]
*Year: 2024
*Genre: Heavy Metal
*Country: Spain
*Format: mp3@CBR320kbps
*Size: 36MB

Tracklist:
1. Here We Are 04:02
2. Desolation 04:12
3. Now It's My Turn 03:11
4. Too Late Again 03:40
******************************
Total playing time: 15:05

https://www.facebook.com/SonsofCult/
https://www.instagram.com/sonsofcult/
https://www.youtube.com/watch?v=6NVU8DFA_CM

Technical info

Input File: 03 - Now It\'s My Turn.mp3
Channels : 2
Sample Rate : 44100
Precision : 16-bit
Duration : 00:03:11.72 = 8454984 samples = 14379.2 CDDA sectors
File Size : 8.07M
Bit Rate : 337k
Sample Encoding: MPEG audio (layer I, II or III)
Comments :
Title=Now It's My Turn
Artist=Sons of Cult
Album=Desolation
Tracknumber=3/4
Year=2024
Discnumber=1/1



[ Hidden Text ]

Posted by: hellraiser69 May 16 2024, 10:01:11

Line-Up:

Jordi Segura : Drums
Vicente Payá Guitars (Bis•nte, Decrapted, Golgotha, Holycide, Unbounded Terror, Yskelgroth, Amon the Sign, Unwom, ex-Shock Wave, ex-Kocsis, ex-Lucifer)
Jaume Vilanova: Vocals ( ex-Whoremageddon)
Vicky Offidani: Bass
Dan Garcia : Guitars (Golgotha)

Posted by: Hombrebotella May 17 2024, 10:23:09

Genial, muchas gracias, gran banda de Metal clasico.
Esto si es velocidad, sale ayer y ya lo tenéis, jajaja.
Mcuhas gracias.

Отлично, большое спасибо, отличная классическая метал-группа.
Это скорость, она вышла вчера и уже есть, ха-ха-ха.
Большое спасибо.

Powered by Invision Power Board
© Invision Power Services