Printable Version of Topic

Click here to view this topic in its original format

Metal Area - Extreme Music Portal _ New Releases _ Dreamweaver - Sign Of The Ancient Flame [single] (2024)

Posted by: smysl May 15 2024, 14:28:00

https://metalarea.org/images/audiocovers/2024_May/acov_tid397121.jpg

*Artist: Dreamweaver
*Album: Sign Of The Ancient Flame [single]
*Year: 2024
*Genre: Heavy Metal
*Country: Spain
*Format: mp3@CBR320kbps
*Size: 31MB

Tracklist:
1.Sign of the Ancient Flame 05:44
2.Zoroaster 07:44
******************************
Total playing time: 13:28

https://www.youtube.com/watch?v=CxwhQG1nRM4
https://www.instagram.com/dreamweavercult/
https://www.qobuz.com/us-en/album/sign-of-the-ancient-flame-dreamweaver/xg0esty12tk8a

Technical info

Input File: 02 Zoroaster.mp3
Channels : 2
Sample Rate : 44100
Precision : 16-bit
Duration : 00:07:44.83 = 20498783 samples = 34861.9 CDDA sectors
File Size : 18.8M
Bit Rate : 324k
Sample Encoding: MPEG audio (layer I, II or III)
Comments :
Title=Zoroaster
Artist=Dreamweaver
Album=Sign of the Ancient Flame
Tracknumber=2/2
Year=2024
Genre=Heavy Metal
Discnumber=1/1



[ Hidden Text ]

Powered by Invision Power Board
© Invision Power Services