Printable Version of Topic

Click here to view this topic in its original format

Metal Area - Extreme Music Portal _ Archive _ Baardvader - When The Stars Arrive (2024)

Posted by: Samaritianin May 15 2024, 16:28:33

https://metalarea.org/images/audiocovers/2024_May/acov_tid397125.jpg

*Artist: Baardvader
*Album: When The Stars Arrive
*Year: 2024
*Genre: Stoner/Doom Metal
*Country: Netherlands
*Format: mp3@CBR320kbps
*Size: 126MB

Tracklist:
1. I Know You Know
2. Let Go
3. Goodbye
4. Redemption Day
5. The False Prophet
6. Save Ourselves
7. When the Stars Arrive
******************************
Total playing time: 54:20

https://baardvader.bandcamp.com/album/when-the-stars-arrive

Technical info

Input File: 04 - Redemption Day.mp3
Channels : 2
Sample Rate : 44100
Precision : 16-bit
Duration : 00:07:30.00 = 19845000 samples = 33750 CDDA sectors
File Size : 18.3M
Bit Rate : 325k
Sample Encoding: MPEG audio (layer I, II or III)
Comments :
Title=Redemption Day
Artist=Baardvader
Album=When The Stars Arrive
Tracknumber=4
Year=2024-05-16
Genre=Rock
Discnumber=1



[ Hidden Text ]

Posted by: Evrom May 16 2024, 09:47:30

doom/stoner rock
full album youtube preview :
https://youtu.be/JOxta--nBQ4?si=PbHvoytzuNehFL-E

Powered by Invision Power Board
© Invision Power Services