Printable Version of Topic

Click here to view this topic in its original format

Metal Area - Extreme Music Portal _ Find Area _ Loathe - I Let It In And It Took Everything (2020)

Posted by: Metalass Jul 5 2023, 16:28:09

https://metalarea.org/images/audiocovers/2023_Jul/acov_tid383704.jpg

*Artist: Loathe
*Album: I Let It In And It Took Everything
*Year: 2020
*Genre: Metalcore
*Country: United Kingdom
*Format: mp3@CBR320kbps
*Size: 112MB

Tracklist:
1. Theme 1:23
2. Aggressive Evolution 3:27
3. Broken Vision Rhythm (featuring Harry Rule from God Complex) 2:36
4. Two-Way Mirror 5:00
5. 451 Days 1:39
6. New Faces in the Dark 3:12
7. Red Room 2:03
8. Screaming 5:55
9. Is It Really You? 4:48
10. Gored 3:08
11. Heavy Is the Head That Falls with the Weight of a Thousand Thoughts 4:18
12. A Sad Cartoon 5:16
13. A Sad Cartoon (Reprise) 1:15
14. I Let It In and It Took Everything... (featuring Vincente Void of Darke Complex) 5:20
******************************
Total playing time: 49:20


 ! 

Правила, 2.4
 


https://sharptonerecords.bandcamp.com/album/i-let-it-in-and-it-took-everything

Extended info
Рип не мой



Technical info

Input File: 07 - Red Room.mp3
Channels : 2
Sample Rate : 44100
Precision : 16-bit
Duration : 00:02:03.10 = 5428622 samples = 9232.35 CDDA sectors
File Size : 4.96M
Bit Rate : 322k
Sample Encoding: MPEG audio (layer I, II or III)
Comments :
Title=Red Room
Artist=Loathe
Album=I Let It in and It Took Everything
Tracknumber=7
Year=2020
Genre=Progressive Metalcore / Atmospheric / Alt. Metal
Discnumber=1



[ Hidden Text ]

Posted by: Metalass Jul 12 2023, 10:38:19

Потрясающий релиз, очень разнообразный, атмосферный, и качевый, многослойный. Продолжение и усложнение идей прошлого. Обязателен для ознакомления, я считаю.

Posted by: BleedingSun Jul 12 2023, 15:27:49

ЦИТАТА(Metalass @ Jul 12 2023, 10:38:19) *
Потрясающий релиз, очень разнообразный, атмосферный, и качевый, многослойный. Продолжение и усложнение идей прошлого. Обязателен для ознакомления, я считаю.

Ок, заценю,как раз искал их - в теме Sleep Token их Daale упомянул, заценю. Хоть я не фанатею по металкору, но знаю, что интересные вещи практически в любом поджанре присутствуют.

Posted by: Metalass Jul 14 2023, 13:26:51

QUOTE(BleedingSun @ Jul 13 2023, 00:27:49) *
Ок, заценю,как раз искал их - в теме Sleep Token их Daale упомянул, заценю. Хоть я не фанатею по металкору, но знаю, что интересные вещи практически в любом поджанре присутствуют.

Металкор тут кстати весьма условен. Что конкретно играют, не решился бы назвать. Поставил металкор чисто чтобы хоть как-то назвать, что-то хотя бы отдаленно характеризующее группу.

Posted by: vosmidesijatye Jul 14 2023, 13:29:08

ЦИТАТА(Metalass @ Jul 14 2023, 15:26:51) *
Поставил металкор чисто чтобы хоть как-то назвать, что-то хотя бы отдаленно характеризующее группу.


Надо было у Daale спросить прежде чем стиль прописывать, он у нас все в этом плане знает 25.gif

Powered by Invision Power Board
© Invision Power Services