Printable Version of Topic

Click here to view this topic in its original format

Metal Area - Extreme Music Portal _ Find Area _ Sopor Aeternus & The Ensemble Of Shadows - Fab Dead Cult Veil (2024)

Posted by: Shub Mar 22 2024, 16:49:27

https://metalarea.org/images/audiocovers/2024_Mar/acov_tid394360.jpg

*Artist: Sopor Aeternus & The Ensemble Of Shadows
*Album: Fab Dead Cult Veil
*Year: 2024
*Genre: Neoclassical Dark Wave
*Country: Germany
*Format: mp3@VBR265kbps
*Size: 46MB

Tracklist:
01 - The Fabulous 5:45
02 - The Pumpkins 5:24
03 - The Ghosts 6:22
04 - The Dead 6:00
******************************
Total playing time: 23:31

https://soporaeternus.bandcamp.com/album/fab-dead-cult-veil-2024

Technical info

Input File: 02 - The Pumpkins.mp3
Channels : 2
Sample Rate : 44100
Precision : 16-bit
Duration : 00:05:23.66 = 14273274 samples = 24274.3 CDDA sectors
File Size : 11.1M
Bit Rate : 273k
Sample Encoding: MPEG audio (layer I, II or III)
Comments :
Title=The Pumpkins
Artist=Sopor Aeternus & The Ensemble of Shadows
Album=Fab Dead Cult Veil
Tracknumber=2/4
Year=29-0
Genre=Hard Rock
Discnumber=1



[ Hidden Text ]

Posted by: Shub Mar 22 2024, 18:09:57

What can I tell you about the ghosts? pray.gif

Posted by: vosmidesijatye Mar 23 2024, 09:26:38

Разошолсо! crazy.gif

Powered by Invision Power Board
© Invision Power Services