Printable Version of Topic

Click here to view this topic in its original format

Metal Area - Extreme Music Portal _ Low Bitrate _ Mistreater - Mistreater (1985)

Posted by: necroscum Jun 16 2013, 20:25:26

http://metalarea.org/images/audiocovers/2013_Jun/acov_tid203268.jpg

*Artist: Mistreater
*Album: Mistreater
*Year: 1985
*Genre: Heavy Metal
*Country: United States
*Format: mp3@CBR320kbps
*Size: 72MB

Tracklist:
01. Quest 04:50
02. Liquid Shadows 03:35
03. Deviated 04:24
04. Prowless 03:45
05. Mastermyth 04:11
06. Imperial Witch 04:30
07. Red Lights 03:50
08. Wild Child 03:48
09. Morality's Nightmare 03:05
******************************
Total playing time: 35:58

Extended info
Рекомендация перенести релиз в низкобитрейтный раздел


Technical info

Input File: 02. Liquid Shadows.mp3
Channels : 2
Sample Rate : 44100
Precision : 16-bit
Duration : 00:03:35.41 = 9499713 samples = 16156 CDDA sectors
File Size : 8.68M
Bit Rate : 322k
Sample Encoding: MPEG audio (layer I, II or III)
Comments :
Title=Liquid Shadows
Artist=Mistreater
Album=Mistreater
Tracknumber=2
Year=1985
Genre=Heavy Metal



[ Hidden Text ]

Posted by: andreikun Mar 19 2023, 17:01:08

Хороший хэви, правильный. Запись, правда, не очень, вокал сильно вперед выведен, но что поделаешь... Ищите на торрентах, там есть.

Powered by Invision Power Board
© Invision Power Services