Printable Version of Topic

Click here to view this topic in its original format

Metal Area - Extreme Music Portal _ Low Bitrate _ Norrsken - Anfall [demo] (2006)

Posted by: Gelukas May 22 2014, 11:33:32

http://metalarea.org/images/audiocovers/2014_May/acov_tid224207.jpg

*Artist: Norrsken
*Album: Anfall [demo]
*Year: 2006
*Genre: Viking/Black Metal
*Country: Sweden
*Format: mp3@CBR320kbps
*Size: 35MB

Tracklist:
1. Anfall 04:24
2. Omfamnande Mörker 03:57
3. Vargadom 03:54
4. I Frostdödens Grepp 02:58
******************************
Total playing time: 15:13

https://www.youtube.com/watch?v=ISKSJDwaTAQ

Technical info

Input File: 01. Anfall.mp3
Channels : 2
Sample Rate : 48000
Precision : 16-bit
Duration : 00:04:24.94 = 12716928 samples ~ 19870.2 CDDA sectors
File Size : 10.6M
Bit Rate : 321k
Sample Encoding: MPEG audio (layer I, II or III)
Comments :
Artist=Norrsken
Album=Anfall
Tracknumber=01
Year=2006
Genre=9



[ Hidden Text ]

Posted by: Angeldemon617 Jun 12 2022, 17:26:30

Re-up please pray.gif

If someone wants it. Järnvidr's only album (the new band created after Norrsken was renamed). Good Swedish pagan/viking/black metal.
Taken from https://rac-forum.org
[ Hidden Text ]

Posted by: thenecromancer Nov 8 2022, 16:34:49

Still searching..... smile2.gif

Powered by Invision Power Board
© Invision Power Services