Printable Version of Topic

Click here to view this topic in its original format

Metal Area - Extreme Music Portal _ Low Bitrate _ Watchtower - Radiant Moon [ep] (2015)

Posted by: TheTrooper916 Apr 18 2016, 00:58:19

http://metalarea.org/images/audiocovers/2016_Apr/acov_tid265971.jpg

*Artist: http://metalarea.org/forum/index.php?showtopic=125524
*Album: Radiant Moon [ep]
*Year: 2015
*Genre: Stoner/Doom Metal
*Country: Australia
*Format: mp3@CBR320kbps
*Size: 37MB

Tracklist:
1. Radiant Moon 09:03
2. Living Heads 07:09
******************************
Total playing time: 16:12

http://watchtowerwatchtower.bandcamp.com/

Extended info
Watchtower:
Ben Robertson Bass.
Joel McGann Drums.
Robbie Ingram Guitars.
Nico Guijt Vocals.


Technical info

Input File: Radiant Moon-Sample.mp3
Channels : 2
Sample Rate : 44100
Precision : 16-bit
Duration : 00:01:00.03 = 2647279 samples = 4502.18 CDDA sectors
File Size : 2.40M
Bit Rate : 320k
Sample Encoding: MPEG audio (layer I, II or III)
Comments :
Title=Radiant Moon
Artist=Watchtower
Album=Radiant Moon
Tracknumber=1
Year=2015
Genre=Stoner/Doom Metal



[ Hidden Text ]

Powered by Invision Power Board
© Invision Power Services