Printable Version of Topic

Click here to view this topic in its original format

Metal Area - Extreme Music Portal _ Low Bitrate _ Żywia - Słowiańska Wiara (2014)

Posted by: RotAnus Oct 4 2018, 19:04:30

https://metalarea.org/images/audiocovers/2018_Oct/acov_tid311381.jpg

*Artist: Żywia
*Album: Słowiańska Wiara
*Year: 2014
*Genre: Folk/Pagan Metal
*Country: Poland
*Format: mp3@CBR192kbps
*Size: 56MB

Tracklist:
01. Pieśń Perunowa
02. Bramy Nawii
03. Wilcza Pani
04. Kupała, Kupała
05. Pieśń Plonowa
06. Mokosz
07. Ostatni Żerca
08. Modlitwa Wojownika
09. Kobieta-Drzewo
10. Wataha
******************************
Total playing time: 40:43

https://zywia-perkunrecords.bandcamp.com/album/s-owia-ska-wiara

Technical info

Input File: 06. Mokosz.mp3
Channels : 2
Sample Rate : 44100
Precision : 16-bit
Duration : 00:02:46.49 = 7342121 samples = 12486.6 CDDA sectors
File Size : 4.13M
Bit Rate : 198k
Sample Encoding: MPEG audio (layer I, II or III)
Comments :
Title=Mokosz
Artist=Żywia
Album=Słowiańska Wiara
Tracknumber=06
Year=2014
Genre=Folk / Pagan Metal



[ Hidden Text ]

Posted by: avather Oct 5 2018, 19:59:11

Как-то не задорно совсем 6.gif

Posted by: sacrvm_bellvm Nov 8 2022, 21:36:27

1 Pieśń Perunowa
2 Wilcza Pani
3 Kupała, Kupała
4 Pieśń Plonowa
5 Mokosz
6 Ostatni Żerca
7 Modlitwa Wojownika
8 Kobieta-Drzewo
9 Wataha
10 Bramy Nawii

Корректный треклист, 10 трек кавер на Конквисту - Bramy Valhalli

Powered by Invision Power Board
© Invision Power Services