Printable Version of Topic

Click here to view this topic in its original format

Metal Area - Extreme Music Portal _ Low Bitrate _ Esicastic - Demo '96 [demo] (1996)

Posted by: Proteus_666 Apr 27 2019, 12:20:45

http://metalarea.org/images/audiocovers/2019_Apr/acov_tid321117.jpg

*Artist: Esicastic
*Album: Demo '96 [demo]
*Year: 1996
*Genre: Progressive Death Metal
*Country: Italy
*Format: mp3@CBR128kbps
*Size: 25MB

Tracklist:
1. Intro 02:10
2. Errors And Madness 03:52
3. Frames 04:00
4. Pole Position 04:50
5. Straight To Delirium 00:30
6. Faded 03:30
7. Revival 04:16
8. Abuse 05:50
******************************
Total playing time: 28:58

https://myspace.com/esicastic

Technical info

Input File: 02-Errors And Madness.mp3
Channels : 2
Sample Rate : 44100
Precision : 16-bit
Duration : 00:03:40.79 = 9737015 samples = 16559.5 CDDA sectors
File Size : 3.53M
Bit Rate : 128k
Sample Encoding: MPEG audio (layer I, II or III)
Comments :
Title=Errors And Madness
Artist=Esicastic
Album=Promo 1996
Tracknumber=02
Year=1996
Genre=Death Metal



[ Hidden Text ]

Posted by: daisysaber Feb 9 2023, 02:00:11

Please reupload. Thanks!

Posted by: Proteus_666 Mar 5 2023, 19:15:54

new link:
[ Hidden Text ]

Posted by: kimkayoung Oct 27 2023, 02:33:21

Thank you, Proteus_666, as always!
---
Some might be interested in the band's https://www.metal-archives.com/albums/Esicastic/A_Flower_Kollapsed_-_Esicastic/481748:

ESICASTIC'S two tracks at 320 kbps (whereas those of A FLOWER KOLLAPSED at 179 and 165 kbps respectively):

[ Hidden Text ]

That said, anyone with their 1998 demo 'Undecember' by any chance?

Powered by Invision Power Board
© Invision Power Services