Printable Version of Topic

Click here to view this topic in its original format

Metal Area - Extreme Music Portal _ Low Bitrate _ Hyaena - Kill Without Mercy [demo] (1986)

Posted by: Proteus_666 Sep 25 2019, 11:27:55

http://metalarea.org/images/audiocovers/2019_Sep/acov_tid327940.jpg

*Artist: Hyaena
*Album: Kill Without Mercy [demo]
*Year: 1986
*Genre: Heavy Metal
*Country: Italy
*Format: mp3@CBR192kbps
*Size: 34MB

Tracklist:
1. Kill Without Mercy 05:35
2. Unlimited Power 05:25
3. Queen Of Metal 06:40
4. Wrathchild 07:17
******************************
Total playing time: 24:57

Technical info

Input File: 01-Kill Without Mercy.mp3
Channels : 2
Sample Rate : 44100
Precision : 16-bit
Duration : 00:05:35.69 = 14803841 samples = 25176.6 CDDA sectors
File Size : 8.06M
Bit Rate : 192k
Sample Encoding: MPEG audio (layer I, II or III)
Comments :
Title=Kill Without Mercy
Artist=Hyaena (Ita)
Album=Kill Without Mercy (Demo)
Tracknumber=01
Year=1986
Genre=Heavy Metal



[ Hidden Text ]

Posted by: kastrup Feb 11 2024, 18:27:40

Re-up please pray.gif pray.gif pray.gif pray.gif

Posted by: Proteus_666 Apr 1 2024, 17:26:42

new link:
[ Hidden Text ]

Powered by Invision Power Board
© Invision Power Services