Printable Version of Topic

Click here to view this topic in its original format

Metal Area - Extreme Music Portal _ Low Bitrate _ Blasphemous Division - Regiments Of Chaos [demo] (2016)

Posted by: Gelukas Feb 14 2020, 10:24:59

https://metalarea.org/images/audiocovers/2020_Feb/acov_tid333790.jpg

*Artist: Blasphemous Division
*Album: Regiments Of Chaos [demo]
*Year: 2016
*Genre: Black/Death Metal
*Country: Peru
*Format: mp3@VBR128kbps
*Size: 13MB

Tracklist:
1. Intronomicon 02:52 (instrumental)
2. Pits of Blasphemy 03:43
3. Demoniacal Ascendancy 03:26
4. Sang Real 02:13
5. Gates to Gehenna 01:29 (instrumental)
******************************
Total playing time: 13:43

https://blasphemousdivision.bandcamp.com/
https://www.facebook.com/BlasphemousDivision/

Technical info

Input File: 2.- Pits of Blasphemy.mp3
Channels : 2
Sample Rate : 44100
Precision : 16-bit
Duration : 00:03:43.18 = 9842414 samples = 16738.8 CDDA sectors
File Size : 3.57M
Bit Rate : 128k
Sample Encoding: MPEG audio (layer I, II or III)
Comments :
Artist=Blasphemous Division
Album=Regiments of Chaos
Year=2016
Genre=9



[ Hidden Text ]

Powered by Invision Power Board
© Invision Power Services