Printable Version of Topic

Click here to view this topic in its original format

Metal Area - Extreme Music Portal _ Low Bitrate _ Osiris - Forced Insanity [demo] (1989)

Posted by: Proteus_666 Feb 14 2020, 10:33:55

http://metalarea.org/images/audiocovers/2020_Feb/acov_tid333792.jpg

*Artist: Osiris
*Album: Forced Insanity [demo]
*Year: 1989
*Genre: Heavy/Thrash Metal
*Country: Norway
*Format: mp3@VBR157kbps
*Size: 29MB

Tracklist:
1. Megaforce (Instrumental) 03:54
2. Nostradamus 04:19
3. The End 05:32
4. A.F.O.B. 04:05
5. Forced Insanity 04:39
6. En ├śl Til (Another Beer) 03:39
******************************
Total playing time: 26:08

https://www.facebook.com/groups/37613032663

Technical info

Input File: 02-Nostradamus.mp3
Channels : 2
Sample Rate : 44100
Precision : 16-bit
Duration : 00:04:18.12 = 11382872 samples = 19358.6 CDDA sectors
File Size : 4.92M
Bit Rate : 152k
Sample Encoding: MPEG audio (layer I, II or III)
Comments :
Title=Nostradamus
Artist=Osiris (Nor)
Album=Forced Insanity (Demo)
Tracknumber=02
Year=1989
Genre=Metal



[ Hidden Text ]

Powered by Invision Power Board
© Invision Power Services