Printable Version of Topic

Click here to view this topic in its original format

Metal Area - Extreme Music Portal _ Low Bitrate _ Hymnr - Far Beyond Insanity (2021)

Posted by: Necrokilldozer Apr 22 2021, 17:48:17

http://metalarea.org/images/audiocovers/2021_Apr/acov_tid349939.jpg

*Artist: Hymnr
*Album: Far Beyond Insanity
*Year: 2021
*Genre: Black Metal
*Country: Russian Federation
*Format: mp3@CBR320kbps
*Size: 93MB

Tracklist:
1. Part I 10:42
2. Part II 08:10
3. Part III 13:03
4. Part IV 12:02
******************************
Total playing time: 43:57

Extended info
В ЛОУ

Line - up:

VII - Drums
VI - Guitars, Bass
V - Vocals


Technical info

Input File: 02. Part II.mp3
Channels : 2
Sample Rate : 48000
Precision : 16-bit
Duration : 00:08:10.49 = 23543568 samples ~ 36786.8 CDDA sectors
File Size : 19.6M
Bit Rate : 320k
Sample Encoding: MPEG audio (layer I, II or III)
Comments :
Title=Part II
Artist=Hymnr
Album=Far Beyond Insanity
Tracknumber=02
Year=2021
Genre=138



[ Hidden Text ]

Posted by: rickzammuto Apr 23 2021, 16:33:41

https://hymnrofficial.bandcamp.com/releases

Posted by: snorr May 4 2021, 10:18:14

Годнейший релиз. Нет ни у кого в качестве?

Posted by: cesar May 10 2021, 11:01:17

Согласен, неплохо. Атмосфера правильная!

Powered by Invision Power Board
© Invision Power Services