Printable Version of Topic

Click here to view this topic in its original format

Metal Area - Extreme Music Portal _ Low Bitrate _ Lalssu - The Elements (2020)

Posted by: satanist666 May 12 2021, 18:51:10

https://metalarea.org/images/audiocovers/2021_May/acov_tid350788.jpg

*Artist: Lalssu
*Album: The Elements
*Year: 2020
*Genre: Ambient/Doom/Black Metal
*Country: Brazil
*Format: mp3@CBR128kbps
*Size: 35MB

Tracklist:
01. Ethereal 03:39
02. The Betrayer From The Ocean 07:35
03. Volcanic Echoes 08:04
04. Dancing With The Devil 05:49
05. Sands Of Time 02:35
06. Enlil 08:09
******************************
Total playing time: 35:51

Extended info
https://blackheartsrecords.bandcamp.com/album/the-elements


Technical info

Input File: 01. Ethereal.mp3
Channels : 2
Sample Rate : 44100
Precision : 16-bit
Duration : 00:03:39.56 = 9682640 samples = 16467.1 CDDA sectors
File Size : 3.59M
Bit Rate : 131k
Sample Encoding: MPEG audio (layer I, II or III)
Comments :
Title=Ethereal
Artist=LALSSU
Album=The Elements
Tracknumber=1/6
Year=2020



[ Hidden Text ]

Powered by Invision Power Board
© Invision Power Services