Printable Version of Topic

Click here to view this topic in its original format

Metal Area - Extreme Music Portal _ Low Bitrate _ Austral Kult - Speak Of The Devil (2021)

Posted by: Necrokilldozer Jul 12 2021, 16:45:07

http://metalarea.org/images/audiocovers/2021_Jul/acov_tid353340.jpg

*Artist: Austral Kult
*Album: Speak Of The Devil
*Year: 2021
*Genre: Black Metal
*Country: Colombia
*Format: mp3@CBR128kbps
*Size: 56MB

Tracklist:
1. From the Ashes to Infinity 05:41
2. Son of Chaos 06:08
3. The Seal of Solomon 05:17
4. Behold the Dark Necromacy 07:58
5. To the Deepest Void 06:36
6. Betrayers 06:17
7. Nullius in Verba 07:12
8. Speak of the Devil 09:40
9. For Those Who Lie in Disgrace 03:59
******************************
Total playing time: 58:48

https://australkult.bandcamp.com/album/speak-of-the-devil

Technical info

Input File: 03 - The Seal of Solomon.mp3
Channels : 2
Sample Rate : 44100
Precision : 16-bit
Duration : 00:05:17.29 = 13992665 samples = 23797 CDDA sectors
File Size : 5.08M
Bit Rate : 128k
Sample Encoding: MPEG audio (layer I, II or III)
Comments :
Title=The Seal of Solomon
Artist=Austral Kult
Album=Speak of the Devil
Tracknumber=3
Year=2021
Genre=138



[ Hidden Text ]

Powered by Invision Power Board
© Invision Power Services