Printable Version of Topic

Click here to view this topic in its original format

Metal Area - Extreme Music Portal _ Low Bitrate _ Clanrock - Flight Of The Phoenix (2007)

Posted by: riv04 Jan 14 2022, 11:49:07

https://metalarea.org/images/audiocovers/2022_Jan/acov_tid360471.jpg

*Artist: Clanrock
*Album: Flight Of The Phoenix
*Year: 2007
*Genre: Folk Metal/Celtic Rock
*Country: Luxembourg
*Format: mp3@CBR320kbps
*Size: 155MB

Tracklist:
1. Der Rivale
2. Flight of the Phoenix
3. Draco Magnus
4. De Walert
5. Amber Fields of Grain
6. 3 Gefuerdechten
7. Clouds
8. And another Thing
9. Star of the County Down
10. Guns'n Drums
11. Flames
12. Bits n'Pieces
13. Listen, Learn and Act
14. E Kendchen as gebouren gin
******************************
Total playing time: 1:13:00

Technical info

Input File: 01. Der Rivale.mp3
Channels : 2
Sample Rate : 44100
Precision : 16-bit
Duration : 00:03:54.41 = 10337569 samples = 17580.9 CDDA sectors
File Size : 9.56M
Bit Rate : 326k
Sample Encoding: MPEG audio (layer I, II or III)
Comments :
Artist=Clanrock
Album=Flight of the Phoenix



[ Hidden Text ]

Posted by: v.v.m Jan 15 2022, 04:59:52

[ Hidden Text ]

Powered by Invision Power Board
© Invision Power Services