Printable Version of Topic

Click here to view this topic in its original format

Metal Area - Extreme Music Portal _ Low Bitrate _ Volatile - Volatile [ep] (1997)

Posted by: Proteus_666 Jan 14 2022, 12:28:07

http://metalarea.org/images/audiocovers/2022_Jan/acov_tid360472.jpg

*Artist: Volatile
*Album: Volatile [ep]
*Year: 1997
*Genre: Thrash Metal
*Country: Canada
*Format: mp3@CBR192kbps
*Size: 26MB

Tracklist:
1. Pain 03:03
2. Starve For The Sound 04:11
3. Unusual Punishment 03:54
4. Only What You Make 04:46
5. Physical Mechanics 03:31
******************************
Total playing time: 19:25

Extended info
Recorded at N.A.L Sound Studio North Vancouver November 01, 1997.


Technical info

Input File: 01-Pain.mp3
Channels : 2
Sample Rate : 44100
Precision : 16-bit
Duration : 00:03:02.84 = 8063288 samples = 13713.1 CDDA sectors
File Size : 4.39M
Bit Rate : 192k
Sample Encoding: MPEG audio (layer I, II or III)
Comments :
Title=Pain
Artist=Volatile (Can)
Album=Volatile (EP)
Tracknumber=01
Year=1997
Genre=Thrash Metal



[ Hidden Text ]

Powered by Invision Power Board
© Invision Power Services