Printable Version of Topic

Click here to view this topic in its original format

Metal Area - Extreme Music Portal _ Low Bitrate _ Eerified Catacomb & Obserdity - Eerified Catacomb ⛧ Obserdity [split] (2021)

Posted by: sacrut May 13 2022, 08:21:12

https://metalarea.org/images/audiocovers/2022_May/acov_tid364713.jpg

*Artist: Eerified Catacomb & Obserdity
*Album: Eerified Catacomb ⛧ Obserdity [split]
*Year: 2021
*Genre: Raw Black Metal | Raw Black Metal
*Country: Canada | United States
*Format: mp3@CBR320kbps
*Size: 58MB

Tracklist:
Eerified Catacomb:
1. 13th Resurrection of a Cadavre Long Rotted 03:54
2. Gaze Locked to the Thicket Throne 03:40
3. The True Ruler of Earth 05:54
Obserdity:
4. Introduction 01:14
5. Untitled 05:46
6. Untitled 05:20
******************************
Total playing time: 25:48

https://youtu.be/AH_ALenkS2k

Technical info

Input File: 05. Obserdity - Untitled.mp3
Channels : 2
Sample Rate : 48000
Precision : 16-bit
Duration : 00:05:46.75 = 16644240 samples ~ 26006.6 CDDA sectors
File Size : 13.9M
Bit Rate : 320k
Sample Encoding: MPEG audio (layer I, II or III)
Comments :
Title=Untitled
Artist=Obserdity
Album=Eerified Catacomb ⛧ Obserdity
Tracknumber=05
Year=2021
Genre=Raw Black Metal



[ Hidden Text ]

Powered by Invision Power Board
© Invision Power Services