Printable Version of Topic

Click here to view this topic in its original format

Metal Area - Extreme Music Portal _ Low Bitrate _ Terror - Terror [demo] (1994)

Posted by: Proteus_666 May 13 2022, 11:48:20

http://metalarea.org/images/audiocovers/2022_May/acov_tid364727.jpg

*Artist: http://metalarea.org/forum/index.php?showtopic=162197
*Album: Terror [demo]
*Year: 1994
*Genre: Thrash Metal/Hardcore
*Country: Norway
*Format: mp3@CBR192kbps
*Size: 27MB

Tracklist:
1. Nazi 02:44
2. Saw 04:00
3. Sickness 03:30
4. Evil 03:02
5. You 02:09
6. Shades Of Reality 04:13
******************************
Total playing time: 19:38

Extended info
Recorded at Uffa, Trondheim in 1994.


Technical info

Input File: 01-Nazi.mp3
Channels : 2
Sample Rate : 44100
Precision : 16-bit
Duration : 00:02:43.64 = 7216568 samples = 12273.1 CDDA sectors
File Size : 3.93M
Bit Rate : 192k
Sample Encoding: MPEG audio (layer I, II or III)
Comments :
Title=Nazi
Artist=Terror (Nor)
Album=Terror Demo 94
Tracknumber=01
Year=1994
Genre=Thrash Metal



[ Hidden Text ]

Powered by Invision Power Board
© Invision Power Services