Printable Version of Topic

Click here to view this topic in its original format

Metal Area - Extreme Music Portal _ Low Bitrate _ Vigalante - Last Call For Humanity [demo] (1991)

Posted by: Proteus_666 May 13 2022, 15:21:03

http://metalarea.org/images/audiocovers/2022_May/acov_tid364742.JPG

*Artist: Vigalante
*Album: Last Call For Humanity [demo]
*Year: 1991
*Genre: Thrash Metal
*Country: Norway
*Format: mp3@CBR192kbps
*Size: 33MB

Tracklist:
1. Sunconscious Hate 04:17
2. If It Walks Like A Duck 02:50
3. Every Other Word I Say (Is Fuck) 03:00
4. Planetary Suicide 03:26
5. Society Submerged 03:47
6. Save Your Breath 03:18
7. Point Blank 03:36
******************************
Total playing time: 24:14

Extended info
Recorded in June/August 1991.


Technical info

Input File: 01-Subconscious Hate.mp3
Channels : 2
Sample Rate : 44100
Precision : 16-bit
Duration : 00:04:17.45 = 11353501 samples = 19308.7 CDDA sectors
File Size : 6.18M
Bit Rate : 192k
Sample Encoding: MPEG audio (layer I, II or III)
Comments :
Title=Subconscious Hate
Artist=Vigalante (Nor)
Album=Last Call For Humanity (Demo)
Tracknumber=01
Year=1991
Genre=Thrash Metal



[ Hidden Text ]

Powered by Invision Power Board
© Invision Power Services